Aller au contenu
Emu Nova Forums

Graver Avec Nero


Messages recommandés

Hello

G gravé un iso avec nero en track at once avec les morceaux en wav, et quand je le lance avec magic engine ... "load error" :D

Alors je comprends pô !

G bien essayé avec daemon tools mais il veut pas de mon fichier cue ... -_-

D'ailleurs faut il inclure le fichier cue dans la gravure :wacko:

Sinon ton tuto magic engine est nickel Sig ;)

Lien à poster
Partager sur d’autres sites

Hum si j'ai bien compris, tu dois avoir des fichiers wavs et une (et très pobablement 2) pistes de données au format iso. Il faut graver à partir du fichier cue, qui contient les infos relatives à l'organisation des pistes sur le CD.

Si DaemonTools refuse ton cue, c'est probablement qu'il n'est pas valide. Il faut que tu l'édites avec un éditeur de texte et que tu vérifies que tu disposes bien de tous les fichiers décrits dans le cue et qu'ils portent le bon nom. S'ils n'ont pas le bon nom, il faut ou bien modifier le contenu du fichier cue, ou bien renommer tes fichiers wavs et isos afin que ça corresponde au contenu du fichier cue.

Voici un exemple (le début du cue pour Spriggan CD, les descriptions des 2 premières pistes) :

FILE "Spriggan (J) Track-01.wav" WAVE

  TRACK 01 AUDIO

    INDEX 01 00:00:00

FILE "Spriggan (J) Track-02.iso" BINARY

  TRACK 02 MODE1/2048

    PREGAP 00:03:04

    INDEX 01 00:00:00

J'ai surligné en rouge les noms de fichiers attendus par le cue. Ton fichier pour la piste 1 par exemple doit se nommer Spriggan (J) Track-01.wav. Si c'est autre chose, il faut faire l'une des 2 modif que j'ai expliqué plus haut.

Un conseil, avant de graver, essayes de monter ton iso sous DaemonTools. S'il n'y parvient pas, il y a de fortes chances pour que ton cue ait un prob ou que ton iso soit invalide. Et il est toujours sage de graver sur un CD-RW avant une gravure définitive (moi je monte toujours mes isos sous DaemonTools, ça me permet de mettre plusieurs jeux compressés par CD que je copie sur disque dur quand je veux les utiliser). L'autre fois un gars sur usenet a balancé des isos qu'il avait fait lui même. Problème, il s'était amusé à convertir les pistes 44Khz en 22Khz avant de les recompresser en MP3. Un tel foutoir qu'aucune ne marchait. :D

Lien à poster
Partager sur d’autres sites

C'est ton .cue qui doit déconner : il ne doit pas faire référence à des fichiers valides ou existants. Edite le avec notepad et copie nous le contenu ici, avec la liste des fichiers que tu possèdes s'il te plait ^^

Lien à poster
Partager sur d’autres sites

Dans l'exemple que j'ai donné plus haut, tu as pu voir qu'après le nom du fichier se trouve le type de fichier. Si c'est une piste son, c'est normalement WAVE. Parfois y en a qui se plantent et qui mettent WAV. :lol:

Si c'est pas ça, fait ce qu'a écrit Jedi, copie nous le début de ton cue.

Lien à poster
Partager sur d’autres sites

ça c mon cue

FILE DRACX_01.wav WAVE
 TRACK 01 AUDIO
 INDEX 01 00:00:00

FILE DRACX_02.iso BINARY
 TRACK 02 MODE1/2048
 PREGAP 00:03:00
 INDEX 01 00:00:00

FILE DRACX_03.wav WAVE
 TRACK 03 AUDIO
 PREGAP 00:02:50 
 INDEX 01 00:00:00

FILE DRACX_04.wav WAVE
 TRACK 04 AUDIO
 PREGAP 00:00:01
 INDEX 01 00:00:00

FILE DRACX_05.wav WAVE
 TRACK 05 AUDIO
 PREGAP 00:00:01
 INDEX 01 00:00:00

FILE DRACX_06.wav WAVE
 TRACK 06 AUDIO
 PREGAP 00:00:00
 INDEX 01 00:00:00

FILE DRACX_07.wav WAVE
 TRACK 07 AUDIO
 PREGAP 00:00:00
 INDEX 01 00:00:00

FILE DRACX_08.wav WAVE
 TRACK 08 AUDIO
 PREGAP 00:00:01
 INDEX 01 00:00:00

FILE DRACX_09.wav WAVE
 TRACK 09 AUDIO
 PREGAP 00:00:00
 INDEX 01 00:00:00

FILE DRACX_10.wav WAVE
 TRACK 10 AUDIO
 PREGAP 00:00:00
 INDEX 01 00:00:00

FILE DRACX_11.wav WAVE
 TRACK 11 AUDIO
 PREGAP 00:00:00
 INDEX 01 00:00:00

FILE DRACX_12.wav WAVE
 TRACK 12 AUDIO
 PREGAP 00:00:01
 INDEX 01 00:00:00

FILE DRACX_13.wav WAVE
 TRACK 13 AUDIO
 PREGAP 00:00:01
 INDEX 01 00:00:00

FILE DRACX_14.wav WAVE
 TRACK 14 AUDIO
 PREGAP 00:00:01
 INDEX 01 00:00:00

FILE DRACX_15.wav WAVE
 TRACK 15 AUDIO
 PREGAP 00:00:00
 INDEX 01 00:00:00

FILE DRACX_16.wav WAVE
 TRACK 16 AUDIO
 PREGAP 00:00:01
 INDEX 01 00:00:00

FILE DRACX_17.wav WAVE
 TRACK 17 AUDIO
 PREGAP 00:00:01
 INDEX 01 00:00:00

FILE DRACX_18.wav WAVE
 TRACK 18 AUDIO
 PREGAP 00:00:00
 INDEX 01 00:00:00

FILE TDRACX_19.wav WAVE
 TRACK 19 AUDIO
 PREGAP 00:00:00
 INDEX 01 00:00:00

FILE DRACX_20.wav WAVE
 TRACK 20 AUDIO
 PREGAP 00:00:01
 INDEX 01 00:00:00

FILE DRACX_21.wav WAVE
 TRACK 21 AUDIO
  PREGAP 00:00:00
  INDEX 01 00:00:00

FILE DRACX_22.iso BINARY
 TRACK 22 MODE1/2048
 PREGAP 00:03:00
 INDEX 01 00:00:00

Et mes fichiers c ça

DRACX_01.WAV

DRACX_02.iso

DRACX_03.wav

(puis la même chose jusqu'à dracx-21.wav)

DRACX_22.iso

Voili voulou

Modifié par The Jedi
Lien à poster
Partager sur d’autres sites

hum, je vois que l'extension de drac_01.wav est en majuscules... Quoique Windows se contrefiche normalement de la casse des noms de fichiers, tu devrais essayer de la passer en minuscules, comme dans ton cue...

Par contre vérifie la fréquence de tes fichiers wav, dès fois que tu serais tombé sur une iso du même gusse qui s'était amusé à convertir ses WAVs en 22Khz... C'est normalement du 44Khz, en 16 bits et stéréo. Parce que si ce n'est pas ça, ce serait normal que ça ne marche pas... Pour cela charge une des pistes dans Winamp, dans la playlist clique dessus avec le bouton gauche et appuie sur ALT-3 pour obtenir les infos sur le fichier.

Modifié par Sigfrodi
Lien à poster
Partager sur d’autres sites
  • 1 year later...

Join the conversation

You can post now and register later. If you have an account, sign in now to post with your account.

Invité
Répondre à ce sujet…

×   Collé en tant que texte enrichi.   Coller en tant que texte brut à la place

  Seulement 75 émoticônes maximum sont autorisées.

×   Votre lien a été automatiquement intégré.   Afficher plutôt comme un lien

×   Votre contenu précédent a été rétabli.   Vider l’éditeur

×   Vous ne pouvez pas directement coller des images. Envoyez-les depuis votre ordinateur ou insérez-les depuis une URL.

Chargement
×
×
  • Créer...