Aller au contenu
Emu Nova Forums

karlau

Joueur
  • Compteur de contenus

    2
  • Inscription

  • Dernière visite

Réputation sur la communauté

0 Neutral

À propos de karlau

  • Rang
    Inconnu(e)
  1. Après une longue lecture et recherche sur le forum, j'ai téléchargé daemon tools 3.47 et le jeu se lance impeccablement ! Merci quand même à tous.
  2. Bonjour à tous, Je me permets de vous contacter afin d'obtenir de l'aide (déjà nombreuse sur le forum mais si vaste) au sujet de la gravure de mon fichier bin et cue de dracula x. J'ai donc téléchargé magic engine version 0.99 beta 5 ainsi que les cd-rom system 1.00, 2.00 et 3.00 (J). J'utilise Nero en tant que programme de gravure version 6.6.1.4. J'ai donc un dossier nommé Dracula x qui contient un fichier .bin de 473 mo et un fichier .cue de 973 octets. Dans nero, je choisis graver l'image, je séléctionne le fichier .cue et la gravure se déroulle nickel. Quand je tente de faire fonctionner mon cd dans magic engine, il me propose d'appuyer sur run bouton et quand je le fais, il rentre dans le menu backup ram...voici le détail de mon fichier cue : FILE "AKUMAJOU DRACULA X - CHI NO RONDO [J] [s-CD²].BIN" BINARY TRACK 01 AUDIO INDEX 01 00:00:00 TRACK 02 MODE1/2352 PREGAP 00:03:00 INDEX 01 00:48:65 TRACK 03 AUDIO PREGAP 00:02:00 INDEX 01 03:04:14 TRACK 04 AUDIO INDEX 01 04:50:48 TRACK 05 AUDIO INDEX 01 05:53:67 TRACK 06 AUDIO INDEX 01 07:30:09 TRACK 07 AUDIO INDEX 01 08:53:61 TRACK 08 AUDIO INDEX 01 09:58:35 TRACK 09 AUDIO INDEX 01 12:56:60 TRACK 10 AUDIO INDEX 01 14:40:28 TRACK 11 AUDIO INDEX 01 17:21:05 TRACK 12 AUDIO INDEX 01 19:02:58 TRACK 13 AUDIO INDEX 01 21:33:18 TRACK 14 AUDIO INDEX 01 24:00:69 TRACK 15 AUDIO INDEX 01 27:40:51 TRACK 16 AUDIO INDEX 01 30:06:10 TRACK 17 AUDIO INDEX 01 33:21:56 TRACK 18 AUDIO INDEX 01 34:51:29 TRACK 19 AUDIO INDEX 01 36:33:49 TRACK 20 AUDIO INDEX 01 38:33:50 TRACK 21 AUDIO INDEX 01 42:35:12 Auriez-vous le gentillesse de m'aider de manière précise car cela fait de nombreux mois que j'essaye de jouer à ce sublime jeux. Je vous remercie d'avance.
×
×
  • Créer...