Aller au contenu
Emu Nova Forums

SLAYER

Rétro gameur·se
  • Compteur de contenus

    548
  • Inscription

  • Dernière visite

Messages posté(e)s par SLAYER

  1. Il me semble que pour proteger je dois créer un fichier .htaccess sur mon compte ftp et mettre ça dans ce fichier .htaccess

    AuthUserFile /dev/null

    AuthGroupFile /dev/null

    AuthName AccesRestreint

    AuthType Basic

    <limit GET POST>

    order deny,allow

    deny from all

    allow from segasoluce.free.fr

    </Limit>

    et ensuite configurer mon serveur. Il doit y avoir un fichier avec un nom access.conf, srm.conf, httpd.conf ou encore httpd.conf.default. dans ce fichier, et je dois modifier (ou ajouter) la ligne

    AccessFileName .htaccess

    Le probleme est que sur mon ftp online y'a rien de tout ca :merlin:

    Alors bon meut-etre est-ce dans My sql, sauf que moi my sql peut po y aller. Alors je dois faire quoi, prier le bon Dieu pour que des petits e-couillon ne viennt pas foutre le dawah ? :class::blink:

  2. Puis surtout que les consoles sont au bout d'un moment vendues à prix coutant. Nintendo vous le dira, ce sont les jeux qui donnent des sous

    C'est pas avec mes achats de jeux d'occaz à 120 Frcs que je vais leurs remplirs les poches ^^

  3. Ca y'est ca remarche j'ai pu faire ma mise à jour :siffle:

    Sinon je suis abonné chez eux (machtoc "gratuit"), sauf que c'estt pas leur connection "gratuite" que j'utilise (heureusement lol). Vu que pour les ftp wanadaube faut une connec wanadaube pour acceder au ftp. M'enfin wanadou c'est un peu comme la fiatouno pipo :shuriken:

  4. Depuis hiers soir quand je veux me connecter à mes FTP de free j'ai le message "Aucune connexion n'a pu être établie car l'ordinateur cible l'a expressément refusée."

    C'est un bug momentané ou une nouvelle protection pour empecher ceux qui cherchent à se connecter avec un autre FAI (je suis connecté avec club internet quand je veux acceder à mon FAI) ?

  5. Euh lol Helldracot, dans tous mes ripps y'a cette histoire de postgap ca ne les empechent pas de fonctionner. C'est surtout du peauffinage

    POur cette histoire de jeux de la TeamSega faut pas exagerer la majorité marchent, c'est juste que certains foirent. Faut dire aussi qu'ils sont apparement fait d'une maniere pour le moins alambiquée pour ne pas dire tordue :shuriken:

  6. Un tuto tout con que j'ai fait :trefle:

    cliques-là

    Sinon tes pistes sont décompréssées ? Si c'est en wav dans le cue et que les pistes sont toujours compressées en ogg ou mp3 ca va etre chaud, et inversement si c'est du .mp3 dans le cue faut renommer :P

    Sinon un cue a ca cette gueule

    FILE "Track No01.iso" BINARY

      TRACK 01 MODE1/2048

          INDEX 01 00:00:00

          POSTGAP 00:02:00

    FILE "Track No02.wav" WAVE

      TRACK 02 AUDIO

        PREGAP 00:02:00

        INDEX 01 00:00:00

    FILE "Track No03.wav" WAVE

      TRACK 03 AUDIO

        INDEX 01 00:00:00

    FILE "Track No04.wav" WAVE

      TRACK 04 AUDIO

        INDEX 01 00:00:00

  7. juste une ptite precision (inutile )

    ton cue doit avoir le meme nom que ton iso

    exemple : tatrata.iso

    le cue doit etre

    tatrata.cue

    ca fera 500 balles (je prend pas les cheques ) :siffle:

    Ah bah non seulement c'est inutile mais en plus c'est faux, pour un iso de Castlevania tu peut tres bien nommer le cue tapette sm

    ca fera 500 balles (je prend pas les cheques) <_<

    Sinon pour graver un iso Dreamcast oui, pour le créer surement pas :mellow:

  8. Tututu c tres bien verbatim, je n'utilise que ca avec alcohol 120% (discjuggler ca fouette)

    Maintenant faut savoir qu'il y'a des copies qui sont foireuses. Avant de graver faut toujours tester l'image avec chankast et daemon tool

  9. C'est archinaze, et je sais de quoi je parle vu que je l'ai connu à l'epoque la video (j'avais 12 ans :'( )

    Alors oui à l'epoque je trippais, mais seulement sur le déballage technique, po sur la pub en elle-meme

    Prenez Sega, ils avaient une console qui puait vraiment la merde et qui n'avait absolument rien pour elle (la megadrive), et pourtant grace à une campagne pub bien sauvage et costaud (le punk en europe et la F1 face à la dodoche nintendo aux US) ils ont reussi à tenir tete à cette extraordinaire machine à zooms pixelisés qu'était la super nintendo

    Sega à l'epoque c'etait la classe :*)

×
×
  • Créer...